See actions … L'épice - Simple As Pop 17. We Won't Lose You - Team Ghost 15. 9. Find album reviews, stream songs, credits and award information for Vive la Vie - Klub des Loosers on AllMusic - 2004 Dig - Thomas Subiranin 13. Désormais, Fuzati représente seul le Klub des Loosers. But who's this mysterious french singer ? Career. 7. Stream Fuzati (Klub des Loosers) • DJ Set • 17.06.2013 by Le Mellotron from desktop or your mobile device. Klub des Loosers La Laiterie, Strasbourg - Mar 24, 2018 Mar 24 2018 Klub des Loosers Le Jardin du Michel 2018 - Jun 2, 2018 Jun 02 2018 Last updated: 7 Apr 2021, 00:24 Etc/UTC Listen to Les statues (Extrait de la compilation "Le Motel, ma maison"), a song by Klub des loosers on TIDAL Always wearing a mask, he is known for his sad, cynical lyrics. or. 10. Baise les gens, an EP by Klub des Loosers. Genres: French Hip Hop, Boom Bap, Abstract Hip Hop, Experimental Hip Hop. Albums include Vive la vie, La fin de … Xavier Boyer. Fuzati studied communications law and worked as a journalist in Clark magazine before engaging in musical career as an MC and co-founder. Back. Sign up for Deezer for free and listen to Klub des Loosers: discography, top tracks and playlists. Musician/Band. Song Statistics Stats; Tour Statistics Stats; Other Statistics; All Setlists. Categories: All. innofader 1 point 2 points 3 points 2 years ago . He was co-founder in 2000 of Klub des Loosers. Stream and download in Hi-Res on Qobuz.com Les statues. Explore releases from Klub des Loosers at Discogs. The Rodeo. See what other people are saying about Les statues (Extrait de la compilation "Le Motel, ma maison") by Klub des Loosers and discuss your favourite songs with other fans on Last.fm. 2018 (6 ) 2016 (1) 2015 (3) 2012 (7) 2007 (1) 2005 (1) Tours. Selected popular Klub Des Loosers song of Thursday, March 25 2021 is "Baise Les Gens". le klub des loosers baise les gens source - 46894 68 - France - 2002 Sell. Klub des Loosers > Tour Statistics. All setlist songs (19) Years on tour. Forgot account? 4:22 PREVIEW Nature Girl. Cher ami - The Rodeo 11. Tremblor of Void - Of Montreal 08. Deuxième extrait tiré de l'album "la fin de l'espèce" (Les Disques du Manoir) sortie le 05 Mars 2012. klubdesloosers.com single… Klub des Loosers - Volutes on Vimeo Join Contact Klub des Loosers on Messenger. 2:40 PREVIEW Nora (Naked) Orouni. About See All. The answer : Michel Houellebecq - Les pics de pollution. merde Fuzzati... le cafard assuré... permalink; save; context; full comments (4) give award; AJA : Depuis 1947, la SNCF n'a pas connu une seule année sans jour de grêve. MP3 FLAC WAV View more. Au total plus de 29 million de journées de travail ont été perdues. Klub des Loosers. 8. Released in January 2003 on Record Makers (catalog no. of Montreal. Les statues - Klub des Loosers 07. 32,594 people like this. Baise les gens - EP | Klub des Loosers. 2017-10-02T23:26:12Z Comment by Charles Mahé O'Chinal. Klub des Loosers Les statues Lyrics. As you have to be busy every night after 18 pm, know that Vanité magazine is now available alone on the shop. Klub des Loosers from France made the good song Les statues available to us as a part of the album Le Motel, ma maison. Formé en 2000, le groupe se compose initialement du leader et fondateur Fuzati, accompagné de DJ Orgasmic. Log In. Country: France Released: Nov … Average rating for Klub Des Loosers songs is 7.61/10 [332 votes]. REC-09CD; CD). Facebook is showing information to help you better understand the purpose of a Page. Klub des Loosers est un groupe de hip-hop français. The song is a medium length song having a playtime of 3 minutes and 31 seconds. 3:50 PREVIEW Don't Want to Be a Hippie … Nora (Naked) - Orouni 10. Create New Account. Klub des Loosers - Les statues (titre inédit pour une compilation) by Greatbaboon in france. Sell . Posted on December 31, 2015 by The Jukebox Rebel. Stream Avec les larmes by Klub des loosers from desktop or your mobile device Toute la … Genre: BEATS / HIP HOP. Streaming plans Download store Magazine. Stream ad-free or purchase CD's and MP3s now on Amazon.com. Vanité - Magazine Klub des Loosers Magazine ... En raison de la situation sanitaire actuelle, les services de transports nationaux et internationaux peuvent être affectés dans leur logistique; par conséquent les délais de livraison annoncés sur le site ne peuvent être garantis à 100% en fonction de la destination. Shop for Vinyl, CDs and more from Klub des Loosers at the Discogs Marketplace. Don't Want to Be a Hippie but I Wanna Get Scones - School Daze 12. Community See All. Et pour ceux qui aiment bien savoir où va leur argent, sachez que tous les bénéfices sont reversés à l'association "Les poches de Fuzati". See more of Klub des Loosers on Facebook. TITLE "Avec les larmes" PERFORMER "Klub des Loosers" REM COMPOSER "" INDEX 01 00:00:00 FILE "05. Price : Format : 12 inch 33 rpm Cover condition : NA Media condition : NA 12 inch 33 rpm NA/NA GEMINICRICKET (France) Seller : GEMINICRICKET Shipped from : France. Klub des Loosers Le Klub de 7 Orgasmic DJ Detect: Fuzati (born in 1978) is a French rapper originating from Versailles. Show all. Ok, for the auld alliance, for the sake o’ auld land syne, one last entry from “Fabriqué en France; 130 Chansons”, a great soundtrack to a 10 hour working day if ever I heard one ; – ) • “Baise Les Gens” set to a picture of the housing album cover. Objet trouvé - Ben Kerber 14. 32,373 people follow this. Klub des Loosers ‎– Le Parapluie / Les Choses De L'Amour / Souvenir Label: Arcade Mode ‎– AM704 Format: Vinyl, 7", Limited Edition, Blue. Genres: French Hip Hop, Abstract Hip Hop, Instrumental Hip Hop. Le chat et autres histoires Tour 2018 (2) Songs; Albums; Avg Setlist; Covers; With; Concert Map; Songs played total. The last track sounds like Melody Nelson / Serge Gainsbourg. klub des loosers la femme de fer record makers - France - … Page Transparency See More. Klub des Loosers discography and songs: Music profile for Klub des Loosers. Klub Des Loosers, Category: Artist, Albums: VANITÉ, Le chat et autres histoires, Last Days, La fin de l'espèce, Spring Tales, Singles: Qui perd gagne, Comme eux, Battre, Champion, Les statues (Extrait de la compilation "Le Motel, ma maison"), Top Tracks: Volutes, Destin d'hymen, Vieille branche, Champion, Finisher, Biography: Klub des Loosers actually was Fuzati's brainchild. Klub des Loosers – Baise Les Gens. Not Now. 3:31 PREVIEW Tremblor of Void. www.klubdesloosers.com. Thanks to Leklubdesloosers. Baise les gens - EP | Klub des Loosers to stream in hi-fi, or to download in True CD Quality on Qobuz.com. 6. Deuxième extrait tiré de l'album "la fin de l'espèce" (Les Disques du Manoir) sortie le 05 Mars 2012. klubdesloosers.com album… Klub Des Loosers - Encore Merci on Vimeo Join Car oui, je me retrouve à chroniquer un disque du Klub des Loosers en vitesse juste pour pouvoir le mettre dans les tops de fin d'années. 3:02 PREVIEW Cher ami. See all genres ON SALE NOW. Find out at which radio station you can hear Klub Des Loosers - Les statues Klub Des Loosers - Les statues - Listen on Online Radio Box This site uses cookies . Klub des loosers Baise les gens - EP. Nature Girl - Xavier Boyer 09. Autour d'un café.wav" WAVE TRACK 05 AUDIO TITLE "Autour d'un café" PERFORMER "Klub des Loosers" REM COMPOSER "" INDEX 01 00:00:00 FILE "06. All. Ne plus y croire.wav" WAVE TRACK 06 AUDIO TITLE "Ne plus y croire" PERFORMER "Klub des Loosers" REM COMPOSER "" INDEX 01 00:00:00 FILE "07. Après le crash - Iñigo Montoya / Grand Soleil 16. Show all tours. Check out Les statues by Klub des Loosers on Amazon Music.